Lost in Oz HDTV | Kevin Puede Esperar HDTV | Jamaica Inn HDTV

Movies - Other

Justice League 2017 DK SWESUB 1080p HDRip AAC x264-Stiffy

  • Download 5x Faster
  • Download torrent
  • Direct Download
  • Rate this torrent +  |  -

Torrent info

Name:Justice League 2017 DK SWESUB 1080p HDRip AAC x264-Stiffy

Total Size: 4.08 GB

Magnet: Magnet Link

Seeds: 149

Leechers: 29

Stream: Watch Full Movie @ Movie4u

Last Updated: 2018-01-19 11:09:41 (Update Now)

Torrent added: 2018-01-14 13:50:03



VPN For Torrents

Torrent Files List


Justice.League.2017.DK.SWESUB.1080p.HDRip.AAC.x264-Stiffy.mkv (Size: 4.08 GB) (Files: 1)

 Justice.League.2017.DK.SWESUB.1080p.HDRip.AAC.x264-Stiffy.mkv

4.08 GB
 

tracker

leech seeds
 

Torrent description

Justice.League.2017.DK.SWESUB.1080p.HDRip.AAC.x264-Stiffy

http://www.imdb.com/title/tt0974015/
Fueled by his restored faith in humanity and inspired by Superman\'s selfless act, Bruce Wayne enlists the help of his newfound ally, Diana Prince, to face an even greater enemy.

Swedish subtitle by: Lorakk
Danish subtitle by: RELEASED


Mediainfo:

Format : Matroska
Format version : Version 4 / Version 2
File size : 4.08 GiB
Duration : 1h 56mn
Overall bit rate : 4 998 Kbps
Encoded date : UTC 2018-01-14 13:42:02
Writing application : mkvmerge v18.0.0 (\'Apricity\') 64-bit
Writing library : libebml v1.3.5 + libmatroska v1.4.8

Video
ID : 1
Format : MPEG-4 Visual
Format profile : Advanced [emailprotected]
Format settings, BVOP : 2
Format settings, QPel : No
Format settings, GMC : No warppoints
Format settings, Matrix : Default (MPEG)
Muxing mode : Packed bitstream
Codec ID : V_MS/VFW/FOURCC / XVID
Codec ID/Hint : XviD
Duration : 1h 56mn
Bit rate : 4 774 Kbps
Width : 1 920 pixels
Height : 1 080 pixels
Display aspect ratio : 16:9
Frame rate mode : Constant
Frame rate : 29.970 (30000/1001) fps
Color space : YUV
Chroma subsampling : 4:2:0
Bit depth : 8 bits
Scan type : Interlaced
Scan order : Top Field First
Compression mode : Lossy
Bits/(Pixel*Frame) : 0.077
Stream size : 3.90 GiB (96%)
Writing library : XviD 73
Default : Yes
Forced : No

Audio
ID : 2
Format : AAC
Format/Info : Advanced Audio Codec
Format profile : LC
Codec ID : A_AAC
Duration : 1h 56mn
Bit rate : 221 Kbps
Channel(s) : 2 channels
Channel positions : Front: L R
Sampling rate : 48.0 KHz
Frame rate : 46.875 fps (1024 spf)
Compression mode : Lossy
Stream size : 185 MiB (4%)
Language : English
Default : Yes
Forced : No

Text #1
ID : 3
Format : UTF-8
Codec ID : S_TEXT/UTF8
Codec ID/Info : UTF-8 Plain Text
Duration : 1h 49mn
Bit rate : 48 bps
Count of elements : 1317
Stream size : 38.7 KiB (0%)
Language : Swedish
Default : Yes
Forced : No

Text #2
ID : 4
Format : UTF-8
Codec ID : S_TEXT/UTF8
Codec ID/Info : UTF-8 Plain Text
Duration : 1h 49mn
Bit rate : 43 bps
Count of elements : 1013
Stream size : 35.0 KiB (0%)
Language : Danish
Default : No
Forced : No

related torrents

Torrent name

health leech seeds Size
 


comments (0)

Main Menu